<?xml version="1.0" standalone="no"?>
<!DOCTYPE svg PUBLIC "-//W3C//DTD SVG 1.1//EN" "http://www.w3.org/Graphics/SVG/1.1/DTD/svg11.dtd" >
<svg xmlns="http://www.w3.org/2000/svg">
<metadata>Generated by IcoMoon</metadata>
<defs>
<font id="shop" horiz-adv-x="1024">
<font-face units-per-em="1024" ascent="960" descent="-64" />
<missing-glyph horiz-adv-x="1024" />
<glyph unicode="&#x20;" horiz-adv-x="512" d="" />
<glyph unicode="&#xe900;" glyph-name="uniE900" horiz-adv-x="853" d="M853.333 512v-128h-160v128h160z" />
<glyph unicode="&#xe901;" glyph-name="uniE901" horiz-adv-x="853" d="M640 576h-160v-64h-480v-128h480v-64h160v256z" />
<glyph unicode="&#xe902;" glyph-name="uniE902" horiz-adv-x="853" d="M853.333 832v-128h-426.667v128h426.667z" />
<glyph unicode="&#xe903;" glyph-name="uniE903" horiz-adv-x="853" d="M373.333 896h-160v-64h-213.333v-128h213.333v-64h160v256z" />
<glyph unicode="&#xe904;" glyph-name="uniE904" horiz-adv-x="853" d="M853.333 192v-128h-533.333v128h533.333z" />
<glyph unicode="&#xe905;" glyph-name="uniE905" horiz-adv-x="853" d="M266.667 256h-160v-64h-106.667v-128h106.667v-64h160v256z" />
<glyph unicode="&#xe906;" glyph-name="uniE906" horiz-adv-x="1229" d="M286.080 883.6c-12.237 19.2-51.122 19.2-63.36 0-93.6-146.4-146.4-214.8-173.040-251.4-20.878-27.6-49.68-62.998-49.68-124.2 0-115.8 115.44-210.001 254.4-210.001s252 94.2 252 210.001c0 61.802-28.080 95.998-51.122 125.998-26.64 36.604-77.040 105.604-169.198 249.602z" />
<glyph unicode="&#xe907;" glyph-name="uniE907" horiz-adv-x="1229" d="M1192.803 117.999h-470.405v30.003c0 7.803-3.598 15.599-10.8 20.999l-72 60c-13.681 12.001-36.715 12.001-50.398 0l-72-60c-7.2-5.4-10.8-13.196-10.8-20.999v-30.003h-470.4c-19.898 0-36-13.414-36-29.996s16.102-30.003 36-30.003h470.4v-29.996c0-16.8 15.837-30.003 36-30.003h144.001c20.159 0 35.997 13.203 35.997 30.003v29.996h470.405c19.893 0 35.997 13.421 35.997 30.003s-16.104 29.996-35.997 29.996z" />
<glyph unicode="&#xe908;" glyph-name="uniE908" horiz-adv-x="1229" d="M1006.148 883.322c-12.52 19.57-50.982 19.57-63.495 0-44.803-69.923-79.421-122.662-106.53-161.754 16.985-23.906 28.542-39.506 44.585-61.136 24.364-32.608 57.692-77.256 57.692-152.432 0-70.484-33.321-134.198-86.583-182.33 36.441-17.094 77.865-27.67 122.58-27.67 138.936 0 254.403 94.218 254.403 210 0 61.605-28.419 95.86-50.763 126.036-27.040 36.444-79.715 105.467-171.889 249.286z" />
<glyph unicode="&#xe909;" glyph-name="uniE909" horiz-adv-x="1229" d="M614.398 298c138.938 0 252.002 94.218 252.002 210 0 61.605-28.419 95.86-50.77 126.036-27.034 36.446-77.305 105.469-169.484 249.286-12.516 19.57-50.976 19.57-63.492 0-44.803-69.923-79.423-122.662-106.528-161.754 16.985-23.906 28.538-39.506 44.582-61.136 24.362-32.608 57.691-77.256 57.691-152.432 0-70.484-33.319-134.198-86.58-182.33 36.441-17.094 77.866-27.67 122.58-27.67z" />
<glyph unicode="&#xe90a;" glyph-name="store-paw" d="M720.067 384.741c-58.238 70.315-131.851 109.040-207.283 109.040s-149.046-38.725-207.28-109.040c-52.347-63.205-83.598-142.859-83.598-213.077 0-34.11 10.429-60.091 30.994-77.226 20.298-16.912 47.094-22.634 76.992-22.632 31.811 0 67.136 6.478 101.842 12.845 30.328 5.565 58.974 10.819 81.053 10.819 19.058 0 45.926-4.987 74.366-10.267 66.47-12.342 141.811-26.326 185.333 9.859 20.69 17.202 31.179 42.976 31.179 76.602 0.002 70.218-31.25 149.872-83.597 213.077zM726.018 766.563c-21.309 31.416-51.821 49.433-83.714 49.433-31.896 0-62.406-18.019-83.715-49.433-19.573-28.861-30.355-66.762-30.355-106.72 0-39.96 10.781-77.859 30.355-106.72 21.309-31.414 51.821-49.434 83.715-49.434s62.405 18.019 83.714 49.434c19.573 28.861 30.355 66.76 30.355 106.72 0 39.958-10.779 77.861-30.355 106.72zM466.97 766.566c-21.307 31.416-51.818 49.434-83.714 49.434-31.894 0-62.406-18.019-83.714-49.434-19.574-28.861-30.355-66.76-30.355-106.72 0-39.958 10.779-77.859 30.355-106.72 21.309-31.416 51.819-49.435 83.714-49.435 31.896 0 62.406 18.019 83.714 49.435 19.574 28.861 30.355 66.76 30.355 106.72-0.002 39.96-10.781 77.861-30.355 106.72zM940.539 521.446c-8.59 29.221-27.003 50.453-51.843 59.782-19.989 7.509-42.554 6.235-63.538-3.586-28.918-13.531-52.554-41.474-64.845-76.661-10.045-28.754-11.298-59.146-3.525-85.582 8.59-29.219 27.002-50.453 51.843-59.782 8.597-3.229 17.667-4.834 26.885-4.834 12.218 0 24.694 2.821 36.656 8.419 28.917 13.531 52.554 41.474 64.845 76.659v0.002c10.042 28.752 11.294 59.146 3.522 85.582zM265.267 500.986c-12.291 35.187-35.928 63.126-64.845 76.659-20.986 9.821-43.552 11.091-63.54 3.586-24.842-9.333-43.254-30.565-51.844-59.784-7.772-26.435-6.519-56.829 3.525-85.581v-0.003c12.294-35.186 35.929-63.126 64.845-76.658 11.963-5.598 24.438-8.419 36.656-8.419 9.218 0 18.29 1.605 26.885 4.832 24.845 9.333 43.256 30.565 51.845 59.784 7.77 26.435 6.517 56.829-3.526 85.584z" />
<glyph unicode="&#xe90b;" glyph-name="store-mask" d="M624 317.482l-39.774 34.518h-144.451l-39.774-34.518c9.469-9.237 17.694-19.12 24.536-29.47 18.355 25.003 50.653 41.704 87.464 41.704s69.109-16.701 87.464-41.715c6.842 10.362 15.067 20.245 24.536 29.482zM512 208c17.674 0 32 10.746 32 24s-14.326 24-32 24c-17.674 0-32-10.746-32-24s14.326-24 32-24zM160 544h16v64h-16c-8.832 0-16-4.789-16-10.667v-42.666c0-5.878 7.168-10.667 16-10.667zM730.072 381.558c5.006 0.797 9.923 1.274 14.763 1.518l13.205 26.827c3.928 7.968 7.134 16.374 9.96 24.987-0.862-0.026-1.698-0.13-2.56-0.13h-143.093c-33.808 0-64.195 19.091-79.339 49.819l-5.664 11.509c-4.829 9.808-14.534 15.91-25.344 15.91s-20.515-6.102-25.344-15.91l-5.664-11.522c-15.144-30.715-45.531-49.806-79.339-49.806h-143.093c-0.862 0-1.698 0.104-2.56 0.13 2.826-8.613 6.032-17.019 9.96-24.987l13.205-26.827c4.84-0.245 9.757-0.722 14.763-1.518 31.845-5.099 63.574-21.19 90.566-45.558l46.202 47.27h162.608l46.202-47.27c26.992 24.355 58.722 40.446 90.566 45.558zM880 554.667v42.666c0 5.878-7.168 10.667-16 10.667h-16v-64h16c8.832 0 16 4.789 16 10.667zM256 464h144.538c24.384 0 46.323 13.179 57.242 34.397l5.722 11.125c9.242 17.982 27.827 29.146 48.499 29.146s39.258-11.163 48.499-29.146l5.722-11.125c10.918-21.218 32.858-34.397 57.242-34.397h144.538c35.29 0 64 27.914 64 62.222v99.555c0 34.309-28.71 62.222-64 62.222h-512c-35.29 0-64-27.914-64-62.222v-99.555c0-34.309 28.71-62.222 64-62.222zM217.6 625.778c0 20.584 17.229 37.333 38.4 37.333h512c21.171 0 38.4-16.749 38.4-37.333v-99.555c0-20.584-17.229-37.333-38.4-37.333h-144.538c-14.63 0-27.789 7.901-34.355 20.632l-5.722 11.138c-13.581 26.47-40.934 42.896-71.386 42.896s-57.805-16.438-71.398-42.909l-5.709-11.112c-6.566-12.731-19.725-20.645-34.355-20.645h-144.538c-21.171 0-38.4 16.749-38.4 37.333v99.555zM586.818 816h-149.635c-70.19 0-133.011-37.152-165.182-96h480c-32.171 58.848-94.992 96-165.182 96zM449.653 768h-24.939v24h24.939v-24zM499.531 768h-24.939v24h24.939v-24zM678.667 734.101c-25.090 21.864-57.722 33.899-91.85 33.899h-62.349v24h62.349c40.325 0 78.894-14.243 108.584-40.104l-16.734-17.795zM252.952 512h146.259c4.934 0 9.378 2.714 11.592 7.091l5.776 11.418c18.16 35.955 54.725 58.291 95.421 58.291s77.248-22.336 95.408-58.278l5.789-11.443c2.214-4.365 6.658-7.078 11.592-7.078h146.259c7.149 0 12.952 5.747 12.952 12.8v102.4c0 7.053-5.803 12.8-12.952 12.8h-518.096c-7.149 0-12.952-5.747-12.952-12.8v-102.4c0-7.053 5.803-12.8 12.952-12.8zM512 304c-44.12 0-80-32.291-80-72s35.88-72 80-72c44.12 0 80 32.291 80 72s-35.88 72-80 72zM512 184c-29.413 0-53.333 21.528-53.333 48s23.92 48 53.333 48c29.413 0 53.333-21.528 53.333-48s-23.92-48-53.333-48zM789.307 325.090c9.2 1.435 18.118 1.926 26.693 1.598l-5.358 5.302c-16.741 16.52-41.851 23.144-70.878 18.624-30.443-4.734-61.090-21.054-86.302-45.925-16.726-16.509-29.678-35.749-37.92-55.771 1.747-7.366 2.755-14.997 2.755-22.867 0-15.715-3.763-30.536-10.296-43.808 3.062-12.894 8.944-23.95 17.798-32.69l5.627-5.554c-1.773 41.718 17.608 89.43 55.923 127.232 29.448 29.075 65.672 48.203 101.958 53.858zM582.070 160c-17.632-18.896-42.485-30.762-70.058-30.762-27.574 0-52.427 11.866-70.059 30.762-4.282-9.134-9.797-17.454-16.702-24.472l-9.251-9.403c23.595-28.99 58.654-46.125 96.013-46.125 37.32 0 72.416 17.171 95.987 46.125l-9.227 9.392c-6.906 7.029-12.421 15.349-16.702 24.483zM405.704 226.056c0 7.87 1.008 15.502 2.755 22.856-8.242 20.024-21.203 39.266-37.917 55.774-25.211 24.885-55.856 41.192-86.298 45.928-29.038 4.52-54.134-2.104-70.874-18.626l-5.371-5.301c8.586 0.326 17.504-0.165 26.704-1.6 36.298-5.654 72.518-24.782 101.952-53.848 38.314-37.818 57.693-85.52 55.92-127.24l5.626 5.554c8.842 8.739 14.736 19.797 17.798 32.691-6.533 13.274-10.296 28.096-10.296 43.811zM720 160c10.144 0.413 31.445 6.563 52.386 27.574 21.034 21.117 26.936 42.528 27.614 52.426-10.144-0.413-31.445-6.563-52.386-27.574-21.034-21.104-26.936-42.514-27.614-52.426zM224 240c0.666-9.898 6.57-31.309 27.624-52.44 20.934-20.997 42.254-27.16 52.376-27.56-0.666 9.898-6.57 31.309-27.624 52.44-20.934 20.984-42.242 27.147-52.376 27.56zM859.744 283.83c-13.227 13.238-31.749 20.17-53.243 20.17-5.531 0-11.274-0.461-17.166-1.394-30.232-4.778-60.638-21.189-85.65-46.224-50.582-50.627-62.888-120.704-27.422-156.202 16.645-16.648 41.669-23.355 70.408-18.776 30.234 4.778 60.638 21.189 85.651 46.224 50.581 50.627 62.875 120.691 27.422 156.202zM797.166 162.816c-24.328-24.35-50.856-33.022-67.563-33.022-5.718 0-13.488 0.958-18.112 5.512-11.672 11.696-6.651 51.848 27.349 85.877 24.326 24.363 50.854 33.035 67.562 33.035 5.718 0 13.488-0.958 18.112-5.512 11.674-11.696 6.651-51.848-27.347-85.89zM234.669 302.619c-28.739 4.517-53.763-2.128-70.408-18.778-35.464-35.514-23.158-105.584 27.422-156.218 25.011-25.037 55.416-41.45 85.648-46.229 28.752-4.554 53.763 2.128 70.408 18.778 35.464 35.514 23.158 105.584-27.422 156.218-25.011 25.037-55.416 41.451-85.648 46.229zM312.573 135.363c-4.65-4.616-12.443-5.574-18.174-5.574-16.72 0-43.234 8.674-67.549 33.026-18.446 18.466-26.539 36.821-30.069 48.978-2.325 7.965-6.701 27.501 2.646 36.859 4.65 4.616 12.443 5.574 18.174 5.574 16.72 0 43.234-8.674 67.549-33.026 18.446-18.466 26.539-36.821 30.069-48.978 2.314-7.952 6.701-27.501-2.646-36.859z" />
<glyph unicode="&#xe90c;" glyph-name="st-t-leg2" d="M723.077 277.139c16.674-2.475 40.124-7.817 51.149-25.498 11.52-18.5 4.489-40.516-3.26-64.836-12.1-37.939-2.679-94.583 0.492-111.036 5.257-27.221-5.065-89.532-30.071-119.828-13.619-16.483-28.109-19.948-37.888-19.948-22.682 0-37.649 5.205-45.756 15.889-6.042 7.987-6.451 17.050-4.71 23.159 6.741 22.477 8.277 47.019 4.574 72.96-7.39 51.644-33.109 100.676-54.699 137.643-8.325 14.234-17.609 28.348-27.358 42.394l72.11 108.155c25.873-33.724 52.736-55.675 75.418-59.054zM244.196 676.863c16.008 35.636 165.564 265.609 171.93 275.389 3.14 4.83 8.533 7.748 14.302 7.748h341.337c7.117 0 13.483-4.404 15.974-11.060 2.509-6.638 0.614-14.148-4.727-18.842-24.201-21.196-27.136-22.972-28.436-23.756-43.895-26.316-82.603-62.43-120.013-97.348-24.999-23.33-50.842-47.446-78.404-68.932-9.861-7.68-20.19-14.848-30.515-22.016-11.622-8.072-22.613-15.702-32.99-24.098-36.949-29.85-45.517-48.060-44.766-54.118 0.307-2.44 4.83-4.762 6.758-5.65 70.69-32.599 87.859-76.597 122.078-164.265l6.127-15.671c12.698-32.358 27.819-62.157 43.93-87.825l-72.704-109.056c-11.81 15.275-24.183 30.413-37.547 45.227-22.238 24.644-46.285 48.657-69.53 71.881-9.574 9.54-19.132 19.101-28.604 28.727l-4.745 4.813c-37.362 37.905-75.981 77.124-116.021 113.152l-1.604 1.434c-13.108 11.793-26.658 23.979-37.786 39.049-24.472 33.13-30.104 79.431-14.044 115.219z" />
<glyph unicode="&#xe90d;" glyph-name="st-t-muscles" d="M770.833 512.205c84.739 19.183 170.202-0.864 183.269-13.974 5.605-5.649 8.752-13.312 8.731-21.224v-510.986c0-22.040-23.047-36.56-42.933-27.064l-149.067 71.209v502.040zM61.303 168.291l55.84 650.646c0.934 10.894 7.724 20.416 17.72 24.852l256.1 113.626c16.084 7.138 34.912-1.058 40.581-17.79l63.201-186.462c6.584-19.428-7.888-39.62-28.413-39.62h-175.512l43.906-272.881c-25.070-21.999-44.804-50.326-56.46-83.098-6.934-19.494 7.548-40.052 28.264-40.052 12.338 0 23.896 7.666 28.266 19.951 19.807 55.682 72.867 93.092 132.037 93.092 58.703 0 111.616-37.011 131.666-92.099 5.666-15.568 22.883-23.593 38.451-17.93 15.568 5.666 23.596 22.876 17.93 38.444-9.359 25.719-23.76 48.657-41.796 67.915 28.488 27.573 61.638 49.766 97.748 65.591v-471.91c-78.524-15.401-157.641-20.323-235.715-14.558-179.87 13.278-333.838 84.521-401.955 135.748-8.262 6.209-12.744 16.237-11.86 26.535z" />
<glyph unicode="&#xe90e;" glyph-name="st-t-muscler" d="M253.167 512.205c-84.738 19.183-170.204-0.864-183.268-13.974-5.606-5.649-8.754-13.312-8.732-21.224v-510.986c0-22.040 23.046-36.56 42.934-27.064l149.066 71.209v502.040zM962.697 168.291l-55.839 650.646c-0.935 10.894-7.724 20.416-17.722 24.852l-256.099 113.626c-16.084 7.138-34.912-1.058-40.581-17.79l-63.201-186.462c-6.584-19.428 7.888-39.62 28.413-39.62h175.51l-43.906-272.881c25.071-21.999 44.807-50.326 56.46-83.098 6.936-19.494-7.547-40.052-28.262-40.052-12.339 0-23.897 7.666-28.266 19.951-19.808 55.682-72.868 93.092-132.038 93.092-58.703 0-111.616-37.011-131.666-92.099-5.666-15.568-22.883-23.593-38.451-17.93-15.568 5.666-23.596 22.876-17.93 38.444 9.359 25.719 23.76 48.657 41.796 67.915-28.488 27.573-61.638 49.766-97.748 65.591v-471.91c78.524-15.401 157.641-20.323 235.715-14.558 179.869 13.278 333.838 84.521 401.954 135.748 8.264 6.209 12.745 16.237 11.861 26.535z" />
<glyph unicode="&#xe90f;" glyph-name="st-t-head" d="M254.181 484.574c-1.097 38.584-12.617 69.304-18.286 134.766-3.486 4.975-8.048 9.1-13.349 12.069-4.702-26.948-5.134-54.47-1.28-81.554 4.906-24.323 16.276-46.872 32.914-65.28zM800.734 630.85c-5.342-2.828-9.923-6.906-13.35-11.886-5.12-68.022-16.271-93.622-18.285-134.766 16.425 18.691 27.593 41.407 32.365 65.83 3.973 26.815 3.724 54.084-0.73 80.822zM290.934 477.805c0-78.995-17.006-122.88 50.652-187.795 73.141-70.219 73.141-134.584 133.67-134.584h73.141c60.525 0 59.795 63.27 133.12 134.035 51.2 49.37 54.859 83.019 52.299 152.685-4.755 103.68 16.271 100.39 18.285 226.195 0.017 9.686-7.523 17.705-17.19 18.286-149.76 12.434-238.995 108.8-252.525 257.28-0.519 5.126-3.178 9.796-7.322 12.859s-9.387 4.237-14.438 3.232c-42.424-8.777-181.395-48.274-188.161-192.548-8.96-197.85 18.469-217.050 18.469-289.645zM616.055 659.199c3.434 9.49 13.913 14.401 23.405 10.971 10.844-3.893 21.893-7.19 33.096-9.874 10.1-1.212 17.302-10.381 16.090-20.48s-10.38-17.303-20.48-16.091c-14.008 2.769-27.771 6.683-41.141 11.703-4.646 1.646-8.431 5.098-10.496 9.573s-2.239 9.595-0.474 14.198zM524.626 719.176c3.151 3.686 7.639 5.969 12.476 6.346 4.833 0.378 9.622-1.182 13.305-4.334 8.646-7.39 17.746-14.23 27.249-20.48 6.444-4.485 9.305-12.584 7.11-20.122s-8.957-12.835-16.804-13.158c-3.584 0.028-7.083 1.109-10.056 3.109-10.854 7.059-21.238 14.816-31.085 23.223-7.441 6.531-8.332 17.797-2.014 25.417h-0.181zM486.226 800.913c5.553-10.080 11.657-19.848 18.285-29.257 5.816-8.189 3.939-19.538-4.205-25.417-3.97-2.834-8.909-3.965-13.715-3.141-4.809 0.824-9.086 3.535-11.885 7.529-7.503 10.536-14.343 21.529-20.48 32.914-3.267 5.749-3.219 12.804 0.126 18.507s9.479 9.189 16.094 9.143c6.612-0.046 12.694-3.615 15.961-9.364l-0.181-0.914zM430.455 913.187c9.892 1.9 19.459-4.559 21.391-14.446 2.379-11.52 5.12-22.857 8.23-33.829 2.83-9.695-2.737-19.846-12.435-22.674-9.694-2.828-19.845 2.739-22.675 12.434-3.471 12.069-6.4 24.503-8.96 36.571-1.075 4.833-0.147 9.896 2.577 14.031 2.72 4.136 7.004 6.991 11.872 7.912zM220.709 129.642c-44.617-7.864-68.571-26.515-164.571-77.899-16.823-9.141-45.531-19.381-53.028-32.365-3.109-5.485-3.109-6.581-3.109-65.096 0-10.1 8.187-18.285 18.286-18.285h283.794c-57.417 54.856-68.206 140.616-68.389 196.755-4.389-1.28-8.777-2.195-12.983-3.11zM1021.635 19.377c-22.856 22.859-4.021 3.475-131.29 74.974-30.556 19.118-64.519 32.157-100.021 38.4 0-56.139-10.974-142.814-68.39-196.755h283.795c10.097 0 18.285 8.185 18.285 18.285 0 59.43 0 59.795-2.379 65.096zM753.565 147.203c-14.128 7.1-27.645 15.357-40.414 24.685v-34.741c0-10.1-8.185-18.285-18.285-18.285s-18.285 8.185-18.285 18.285v91.426c-42.605-55.77-56.32-109.711-128-109.711-106.97 0-122.515-10.059-175.725 73.141-8.23 12.616-16.459 25.050-25.6 36.57v-91.426c0-10.1-8.187-18.285-18.286-18.285s-18.286 8.185-18.286 18.285v34.741c-12.751-9.353-26.269-17.609-40.411-24.685-1.829-58.696 6.766-174.261 98.743-211.2h285.805c91.976 36.574 100.57 152.504 98.744 211.2zM730.153 724.477c-121.784 12.8-196.024 88.869-210.285 215.040 152.32-10.057 203.155-62.354 210.285-215.040z" />
<glyph unicode="&#xe910;" glyph-name="st-t-leg1" d="M300.923 277.139c-16.674-2.475-40.124-7.817-51.148-25.498-11.52-18.5-4.488-40.516 3.26-64.836 12.1-37.939 2.68-94.583-0.494-111.036-5.256-27.221 5.068-89.532 30.072-119.828 13.62-16.483 28.108-19.948 37.888-19.948 22.682 0 37.65 5.205 45.756 15.889 6.042 7.987 6.451 17.050 4.71 23.159-6.741 22.477-8.277 47.019-4.574 72.96 7.39 51.644 33.109 100.676 54.699 137.643 8.325 14.234 17.609 28.348 27.358 42.394l-72.11 108.155c-25.873-33.724-52.735-55.675-75.418-59.054zM779.803 676.863c-16.009 35.636-165.564 265.609-171.93 275.389-3.14 4.83-8.533 7.748-14.302 7.748h-341.336c-7.116 0-13.482-4.404-15.974-11.060-2.508-6.638-0.614-14.148 4.728-18.842 24.2-21.196 27.136-22.972 28.434-23.756 43.896-26.316 82.604-62.43 120.014-97.348 24.999-23.33 50.842-47.446 78.404-68.932 9.861-7.68 20.19-14.848 30.515-22.016 11.622-8.072 22.613-15.702 32.99-24.098 36.949-29.85 45.517-48.060 44.766-54.118-0.307-2.44-4.83-4.762-6.758-5.65-70.69-32.599-87.859-76.597-122.078-164.265l-6.127-15.671c-12.698-32.358-27.819-62.157-43.93-87.825l72.704-109.056c11.81 15.275 24.183 30.413 37.547 45.227 22.238 24.644 46.285 48.657 69.53 71.881 9.574 9.54 19.132 19.101 28.604 28.727l4.745 4.813c37.362 37.905 75.981 77.124 116.023 113.152l1.601 1.434c13.111 11.793 26.658 23.979 37.789 39.049 24.47 33.13 30.102 79.431 14.042 115.219z" />
<glyph unicode="&#xe911;" glyph-name="st-b-binoculars" d="M222.374 631.675c-122.617 0-222.374-99.758-222.374-222.365 0-122.604 99.757-222.382 222.374-222.382s222.387 99.779 222.387 222.382c0 122.631-99.768 222.365-222.387 222.365zM222.374 268.861c-77.443 0-140.44 62.996-140.44 140.438 0 77.445 63.007 140.442 140.44 140.442 77.444 0 140.449-63.017 140.449-140.442 0-77.442-63.006-140.438-140.449-140.438zM131.684 480.123c-30.416-39.441-27.811-93.908 3.537-130.174-11.125 37.038-4.952 78.698 20.47 111.643 25.432 32.956 64.154 49.483 102.811 48.111-43.030 21.132-96.392 9.827-126.818-29.58zM801.635 631.675c-122.617 0-222.385-99.758-222.385-222.375s99.768-222.385 222.385-222.385c122.617 0 222.375 99.779 222.375 222.385 0 122.641-99.758 222.375-222.375 222.375zM801.635 268.861c-77.455 0-140.452 62.996-140.452 140.438 0 77.445 63.007 140.442 140.452 140.442s140.428-63.007 140.428-140.431c0-77.452-62.983-140.448-140.428-140.448zM765.501 509.686c38.656 1.372 77.387-15.155 102.82-48.111 25.433-32.945 31.584-74.612 20.47-111.64 31.338 36.277 33.952 90.743 3.526 130.171-30.426 39.421-83.787 50.726-126.816 29.58z" />
<glyph unicode="&#xe912;" glyph-name="st-b-blush" d="M511.973 383.655c-23.545 0-46.367 3.065-68.352 8.26-12.233-1.85-21.637-12.312-21.637-25.047 0-10.148 5.973-18.818 14.548-22.9 24.262 3.871 49.446 6.113 75.459 6.113 26.016 0 51.18-2.26 75.459-6.113 8.574 4.096 14.541 12.786 14.541 22.9 0 12.752-9.407 23.211-21.623 25.047-22.016-5.195-44.834-8.26-68.393-8.26zM511.986-63.997c169.967 0 307.753 88.938 307.753 198.639 0 92.491-98.079 169.984-230.67 192.116-22.241 3.703-45.394 5.885-69.294 6.267-2.615 0.065-5.175 0.259-7.789 0.259s-5.188-0.229-7.786-0.259c-23.91-0.379-47.056-2.563-69.297-6.267-132.59-22.129-230.67-99.625-230.67-192.116 0-109.701 137.789-198.639 307.753-198.639zM511.986 298.759c141.984 0 257.096-74.298 257.096-165.936s-115.111-128.72-257.096-128.72c-141.984 0-257.089 37.082-257.089 128.72s115.105 165.936 257.089 165.936zM511.983 37.676c52.425 0 223.526 6.868 223.526 95.147 0 71.752-102.362 132.359-223.526 132.359-121.167 0-223.516-60.607-223.516-132.359 0-88.279 171.091-95.147 223.516-95.147zM445.003 408.835c19.91-4.902 40.615-7.769 61.949-8.144 1.69-0.038 3.338-0.263 5.035-0.263s3.345 0.225 5.035 0.263c21.34 0.375 42.028 3.243 61.945 8.144 122.115 30.051 212.808 139.984 212.808 271.378 0 154.524-125.263 279.786-279.788 279.786s-279.786-125.262-279.786-279.786c0-131.394 90.697-241.31 212.803-271.378zM511.986 898.040c120.081 0 217.818-97.722 217.818-217.811 0-120.108-97.7-217.825-217.818-217.825-120.108 0-217.827 97.717-217.827 217.825 0 120.089 97.739 217.811 217.827 217.811zM560.060 741.266c14.589 17.9 26.296 37.354 35.543 58.509 6.424 14.721-15.278 27.565-21.736 12.705-8.329-19.018-18.459-37.279-31.607-53.412-10.199-12.455 7.523-30.39 17.801-17.802zM598.391 707.44c14.787 24.428 23.835 51.37 32.065 78.543 4.704 15.583-19.606 22.196-24.296 6.705-7.588-25.182-15.8-49.91-29.505-72.54-8.428-13.936 13.343-26.578 21.736-12.708z" />
<glyph unicode="&#xe913;" glyph-name="st-b-eyebrow" d="M1020.849 581.038c-135.247 270.495-430.65 277.049-567.924 242.731l-430.144-107.035c-17.162-4.27-26.892-22.374-21.076-39.012l42.96-122.892c15.732-46.793 66.395-72.482 113.765-56.695 0.28 0.096 0.558 0.191 0.836 0.294l321.399 117.791c165.137 60.523 354.946 32.705 495.35-72.598 11.127-8.349 26.539-7.946 37.222 0.969s13.834 24.006 7.612 36.448zM914.016 411.624c-47.319-28.314-127.413-116.821-263.137-155.542-0.311-0.068-0.618-0.106-0.928-0.184-1.072-0.266-2.106-0.594-3.12-0.969-38.81-10.697-82.111-17.306-130.434-17.306-165.663 0-257.533 77.029-350.957 116.835-14.82 7.407-32.84 1.399-40.249-13.418-7.41-14.821-1.402-32.84 13.416-40.25 14.582-6.154 29.52-13.534 45.086-21.579l-48.706-73.059c-9.19-13.786-5.464-32.413 8.322-41.602 13.744-9.165 32.382-5.509 41.602 8.322l52.265 78.394c28.504-14.585 59.551-29.338 94.391-41.772l-22.376-89.501c-4.018-16.077 5.754-32.362 21.828-36.383 16.029-4.004 32.348 5.707 36.379 21.828l21.726 86.907c28.457-6.799 59.283-11.687 92.918-13.698v-91.023c0-16.565 13.411-30 29.976-30 16.568 0 30 13.435 30 30v90.627c31.42 1.475 62.659 5.652 93.321 12.397l21.849-87.385c4.041-16.169 20.401-25.822 36.379-21.825 16.073 4.017 25.846 20.303 21.828 36.379l-22.207 88.818c32.986 11.049 64.942 25.163 95.345 42.134l50.818-76.23c9.23-13.848 27.877-17.469 41.602-8.318 13.783 9.189 17.51 27.815 8.322 41.602l-49.995 74.991c11.762 8.363 8.441 6.178 110.739 82.804 13.254 9.943 15.944 28.747 6.001 42.001-9.94 13.257-28.744 15.944-42.001 6.004z" />
<glyph unicode="&#xe915;" glyph-name="st-b-eyeshadow" d="M987.412 795.425h-950.842c-20.197 0-36.571-16.374-36.571-36.577v-621.707c0-20.193 16.374-36.57 36.571-36.57h950.859c20.197 0 36.57 16.377 36.57 36.57v621.707c-0.017 20.203-16.391 36.577-36.588 36.577zM138.275 154.283c-41.034 0-74.278 33.266-74.278 74.278s33.26 74.278 74.278 74.278c41.012 0 74.297-33.266 74.297-74.278s-33.26-74.278-74.297-74.278zM138.275 373.719c-41.034 0-74.278 33.249-74.278 74.278 0 41.018 33.26 74.281 74.278 74.281 41.012 0 74.297-33.263 74.297-74.281 0-41.025-33.26-74.278-74.297-74.278zM138.275 593.135c-41.034 0-74.297 33.26-74.297 74.278 0 41.012 33.26 74.271 74.297 74.271s74.271-33.26 74.271-74.271c0-41.018-33.234-74.278-74.271-74.278zM321.133 154.283c-41.037 0-74.281 33.266-74.281 74.278s33.26 74.278 74.281 74.278c41.022 0 74.278-33.266 74.278-74.278s-33.242-74.278-74.278-74.278zM321.133 373.719c-41.037 0-74.281 33.249-74.281 74.278 0 41.018 33.26 74.281 74.281 74.281s74.278-33.263 74.278-74.281c0-41.025-33.242-74.278-74.278-74.278zM321.133 593.135c-41.037 0-74.281 33.26-74.281 74.278 0 41.012 33.26 74.271 74.281 74.271s74.278-33.26 74.278-74.271c0-41.018-33.242-74.278-74.278-74.278zM503.999 154.283c-41.039 0-74.281 33.266-74.281 74.278s33.26 74.278 74.281 74.278c41.011 0 74.278-33.266 74.278-74.278s-33.266-74.278-74.278-74.278zM503.999 373.719c-41.039 0-74.281 33.249-74.281 74.278 0 41.018 33.26 74.281 74.281 74.281 41.011 0 74.278-33.263 74.278-74.281 0-41.025-33.266-74.278-74.278-74.278zM503.999 593.135c-41.039 0-74.281 33.26-74.281 74.278 0 41.012 33.26 74.271 74.281 74.271 41.011 0 74.278-33.26 74.278-74.271 0-41.018-33.266-74.278-74.278-74.278zM686.845 154.283c-41.025 0-74.274 33.266-74.274 74.278s33.263 74.278 74.274 74.278c41.028 0 74.315-33.266 74.315-74.278s-33.287-74.278-74.315-74.278zM612.57 448c0 41.035 33.249 74.278 74.274 74.278 41.015 0 74.278-33.26 74.278-74.278 0-41.028-33.263-74.278-74.278-74.278-41.025-0.003-74.274 33.249-74.274 74.278zM686.845 593.135c-41.025 0-74.274 33.26-74.274 74.278 0 41.012 33.263 74.271 74.274 74.271 41.028 0 74.315-33.26 74.315-74.271 0-41.018-33.287-74.278-74.315-74.278zM959.997 195.041c0-20.193-23.463-36.57-52.422-36.57h-26.214c-28.945 0-52.395 16.377-52.395 36.57v499.809c0 20.203 23.446 36.58 52.395 36.58h26.214c28.959 0 52.422-16.377 52.422-36.58v-499.809zM929.99 637.303c-18.097 59.855-24.736 50.796-27.081 67.322-0.741 5.421-19.657 5.405-20.009-0.084-0.976-14.834-8.537-21.494-20.753-50.498-13.455-31.92-10.96-56.683 0-67.39h-3.901v-143.38c-2.983-2.847-4.878-6.833-4.878-11.295v-238.892h82.22v238.892c0 4.475-1.911 8.448-4.895 11.295v142.674c6.134 7.311 8.1 22.245-0.703 51.357zM913.534 458.953h-38.13v110.554h38.13v-110.554zM138.283 724.55c-31.489 0-57.133-25.624-57.133-57.117s25.625-57.115 57.133-57.115c31.492 0 57.111 25.623 57.111 57.115 0.026 31.493-25.602 57.117-57.111 57.117zM686.848 724.55c-31.478 0-57.115-25.624-57.115-57.117s25.641-57.115 57.115-57.115c31.505 0 57.149 25.623 57.149 57.115-0.034 31.493-25.644 57.117-57.149 57.117zM503.999 505.115c-31.491 0-57.115-25.627-57.115-57.115s25.624-57.115 57.115-57.115c31.491 0 57.115 25.627 57.115 57.115s-25.624 57.115-57.115 57.115zM321.134 285.699c-31.492 0-57.117-25.627-57.117-57.115 0-31.491 25.625-57.115 57.117-57.115 31.491 0 57.118 25.624 57.118 57.115 0 31.488-25.627 57.115-57.118 57.115zM686.848 285.699c-31.478 0-57.115-25.627-57.115-57.115 0-31.491 25.641-57.115 57.115-57.115 31.505 0 57.149 25.624 57.149 57.115 0 31.488-25.644 57.115-57.149 57.115z" />
<glyph unicode="&#xe916;" glyph-name="st-b-hair" d="M104.443 48.029c-30.407 43.213-48.78 131.905-63.984 141.476-15.172 9.636-23.206 94.327-16.004 115.135 7.202 20.739-19.973 58.348-23.974 89.525s18.309 60.846 17.604 74.356c-0.704 13.472-8.77 103.895 25.575 172.65 18.116 36.233 70.354 93.463 123.903 118.27 47.916 22.214 98.424 13.667 101.497 19.205 6.466 11.715 44.043 84.693 70.354 76.723-36.009-35.177-30.376-75.123-30.376-75.123s120.701 79.924 217.431 75.123c96.696-4.801 290.983-128.672 297.322-132.705 6.369-4.001-14.374 39.978-51.18 87.926 36.775-1.601 95.126-115.101 102.328-121.502s12.001-0.8 0 47.98c24.743-3.201 35.178-70.354 47.981-94.327 12.739-24.006 49.514-24.776 46.346-115.099 55.917-3.202 64.017-167.052 46.346-198.226-7.233-107.131-25.19-151.975-43.145-193.457-17.988-41.482-41.581-95.928-41.581-95.928s5.506 176.78-24.774 306.125c-21.251 90.679-70.031 145.572-107.93 153.477-91.959 19.173-273.35 4.035-294.089-21.572-46.541-16.964-274.405 60.846-321.392 23.975-27.527-21.606-59.599-103.677-59.119-167.851 0.384-45.261 28.775-36.745 30.376-81.524 0.896-24.839-23.398-40.875-36.745-79.957-10.723-31.239-10.658-82.708-12.771-124.672z" />
<glyph unicode="&#xe917;" glyph-name="st-b-lipstick" d="M298.667 64c0.038-33.935 13.536-66.471 37.532-90.467 23.996-23.999 56.532-37.495 90.468-37.533h170.667c33.935 0.038 66.471 13.534 90.467 37.533 23.996 23.996 37.495 56.532 37.533 90.467v42.667h-426.667v-42.667zM682.667 448h-341.333c-11.316 0-22.168-4.495-30.17-12.496s-12.497-18.855-12.497-30.17v-213.333h426.667v213.333c0 11.315-4.495 22.17-12.496 30.17s-18.855 12.496-30.17 12.496zM682.667 576c0 11.315-4.495 22.17-12.496 30.17s-18.855 12.496-30.17 12.496h-256c-11.315 0-22.17-4.495-30.17-12.496s-12.496-18.855-12.496-30.17v-85.333h341.333v85.333zM640 869.631c0 14.545-3.721 28.848-10.803 41.552s-17.295 23.386-29.669 31.032c-12.373 7.647-26.494 12.004-41.025 12.657s-28.986-2.417-41.998-8.921l-85.333-42.666c-14.206-7.044-26.156-17.927-34.495-31.417s-12.728-29.045-12.677-44.903v-165.632h256v208.299z" />
<glyph unicode="&#xe918;" glyph-name="st-b-torso" d="M973.81 494.336c-2.096 3.983-2.652 8.598-1.556 12.964l18.285 73.144c13.24 53.027 10.37 216.392-170.366 270.627-133.796 40.046-183.661 81.627-201.489 102.839-5.693 4.007-12.496 6.136-19.456 6.089h-174.449c-6.97 0.045-13.783-2.097-19.473-6.126-17.79-21.175-67.657-62.757-201.472-102.821-180.736-54.217-183.607-217.6-170.35-270.629l18.286-73.141c1.076-4.369 0.516-8.98-1.573-12.967-48.411-108.38-62.451-228.994-40.228-345.6 1.3-7.922 7.524-14.124 15.451-15.394l76.105-10.79c8.036-1.212 15.894 3.089 19.2 10.513 25.985 57.16 48.642 115.77 67.858 175.544-1.152 6.547-2.341 13.148-3.657 20.241-6.51 35.97-14.629 80.749-22.802 153.801-19.054 171.338 74.386 266.972 78.373 270.958 7.165 6.941 18.571 6.858 25.634-0.186s7.179-18.449 0.258-25.633c-1.115-1.134-84.919-88.192-67.931-241.098 8.046-71.789 16.037-115.893 22.455-151.334 1.573-8.684 3.072-16.896 4.462-24.941 6.84-39.089 10.115-78.718 9.783-118.398 0.627-54.531-2.121-109.046-8.229-163.236-1.426-14.906-3.072-32.038-4.955-52.681-0.955-10.26 2.448-20.446 9.377-28.071s16.745-11.984 27.049-12.012h507.246c10.295 0.031 20.105 4.39 27.030 12.012 6.922 7.619 10.325 17.801 9.376 28.051-1.83 20.681-3.546 37.833-4.973 52.736-6.1 54.18-8.847 108.684-8.23 163.202-0.328 39.601 2.935 79.148 9.745 118.163 1.427 8.226 2.929 16.456 4.499 25.231 6.42 35.42 14.411 79.49 22.439 151.207 17.132 154.038-67.055 240.182-67.898 241.041-6.929 7.175-6.83 18.58 0.225 25.633 7.052 7.053 18.456 7.153 25.631 0.223 3.987-3.986 97.427-99.621 78.394-270.939-8.175-72.98-16.275-117.726-22.804-153.6-1.28-7.096-2.468-13.752-3.656-20.371 19.214-59.75 41.882-118.333 67.895-175.452 3.243-7.465 11.090-11.827 19.145-10.643l76.179 10.807c7.939 1.27 14.179 7.479 15.486 15.415 22.217 116.62 8.144 237.247-40.318 345.62zM588.803 824.685c6.059 8.079 17.521 9.716 25.6 3.657 26.255-18.741 61.515-18.741 87.77 0 8.079 6.059 19.541 4.422 25.6-3.657s4.424-19.541-3.656-25.6c-19.78-14.037-43.404-21.647-67.659-21.797-23.156-0.008-45.66 7.657-64 21.797-3.878 2.91-6.444 7.242-7.13 12.043s0.567 9.678 3.475 13.557zM731.433 539.426c0-10.097-8.189-18.285-18.285-18.285h-36.574c-10.097 0-18.285 8.189-18.285 18.285 0 10.1 8.189 18.289 18.285 18.289h36.574c10.097 0 18.285-8.189 18.285-18.289zM296.232 824.685c6.059 8.079 17.521 9.716 25.6 3.657 26.226-18.836 61.547-18.836 87.771 0 5.226 3.92 12.148 4.754 18.156 2.187s10.189-8.143 10.97-14.629c0.782-6.486-1.956-12.896-7.182-16.816-18.343-14.132-40.847-21.796-64-21.797-24.255 0.149-47.878 7.759-67.659 21.797-3.88 2.91-6.445 7.242-7.13 12.043s0.564 9.678 3.473 13.557zM310.86 557.715h36.573c10.097 0 18.285-8.189 18.285-18.289 0-10.097-8.189-18.285-18.285-18.285h-36.573c-10.099 0-18.286 8.189-18.286 18.285 0 10.1 8.187 18.289 18.286 18.289zM267.615 480.42c53.029-43.52 106.678-43.537 159.615 0 5.052 4.147 11.93 5.287 18.046 2.987 6.12-2.297 10.544-7.687 11.612-14.135s-1.386-12.974-6.434-17.121c-28.46-25.334-64.935-39.83-103.021-40.943-38.084 1.109-74.56 15.599-103.023 40.922l23.205 28.29zM586.428 155.426h23.569c20.511-0.519 39.765 9.844 50.633 27.249 4.949 8.806 16.097 11.933 24.904 6.984s11.933-16.097 6.987-24.904c-17.231-29.051-48.756-46.585-82.524-45.899h-23.569c-20.087-0.014-39.694 6.168-56.139 17.702v-42.97c2.485-28.621 27.488-49.94 56.139-47.872h23.569c20.511-0.519 39.765 9.841 50.633 27.245 4.949 8.806 16.097 11.933 24.904 6.984s11.933-16.097 6.987-24.904c-17.231-29.051-48.756-46.585-82.524-45.899h-23.569c-28.751-0.266-56.088 12.435-74.424 34.58-18.336-22.146-45.674-34.847-74.424-34.58h-23.569c-33.768-0.686-65.294 16.848-82.523 45.899-3.201 5.697-3.12 12.667 0.213 18.289 3.333 5.618 9.411 9.035 15.945 8.96s12.53-3.632 15.732-9.329c10.868-17.405 30.123-27.764 50.633-27.245h23.569c28.652-2.068 53.654 19.251 56.139 47.872v42.97c-16.445-11.534-36.052-17.715-56.139-17.702h-23.569c-33.768-0.686-65.294 16.848-82.523 45.899-3.201 5.697-3.12 12.667 0.213 18.289 3.333 5.618 9.411 9.035 15.945 8.96 6.533-0.079 12.53-3.632 15.732-9.329 10.868-17.405 30.123-27.767 50.633-27.249h23.569c28.652-2.065 53.654 19.255 56.139 47.872v42.974c-16.445-11.534-36.052-17.715-56.139-17.702h-23.569c-33.768-0.686-65.294 16.848-82.523 45.896-3.201 5.697-3.12 12.67 0.213 18.292 3.333 5.618 9.411 9.035 15.945 8.96 6.533-0.079 12.53-3.635 15.732-9.332 10.868-17.401 30.123-27.764 50.633-27.245h23.569c28.652-2.065 53.654 19.255 56.139 47.872v61.843c0 10.1 8.185 18.285 18.285 18.285s18.285-8.185 18.285-18.285v-61.843c2.485-28.617 27.488-49.937 56.139-47.872h23.569c20.511-0.519 39.765 9.844 50.633 27.245 4.949 8.806 16.097 11.936 24.904 6.987s11.933-16.101 6.987-24.907c-17.231-29.047-48.756-46.582-82.524-45.896h-23.569c-20.087-0.014-39.694 6.168-56.139 17.702v-42.974c2.485-28.617 27.488-49.937 56.139-47.872zM756.374 480.403c7.806 6.41 19.333 5.28 25.747-2.526 6.41-7.806 5.28-19.333-2.526-25.747-28.46-25.324-64.939-39.813-103.021-40.922-38.083 1.109-74.557 15.599-103.021 40.922l23.204 28.29c52.958-43.52 106.68-43.537 159.618-0.017z" />
<glyph unicode="&#xe919;" glyph-name="st-b-beard" d="M980.582 804.293l-60-30c-10.168-5.098-16.582-15.468-16.582-26.836v-45.176c0-179.502-127.392-348.25-280.965-440.39-28.71-17.254-66.386-11.25-89.532 12.568-11.25 11.602-31.758 11.602-43.008 0-23.115-23.818-60.733-29.88-89.532-12.568-153.574 92.14-280.964 260.888-280.964 440.39v45.176c0 11.368-6.416 21.738-16.582 26.836l-60 30c-20.174 10.056-43.418-4.786-43.418-26.836v-135.176c0-287.667 226.238-539.677 504.381-612.801 2.492-0.676 5.041-0.997 7.619-0.997s5.127 0.321 7.619 0.997c278.142 73.124 504.381 325.134 504.381 612.801v135.176c0 22.038-23.293 36.928-43.418 26.836zM678.813 688.609c59.286 7.078 103.188 59.534 103.188 119.242v29.666c0 16.582-13.418 30-30.003 30-16.582 0-30-13.418-30-30 0-16.552-13.445-30-30-30-8.728 0-14.998 3.574-18.749 6.562-44.766 35.948-87.863 53.438-131.806 53.438h-58.887c-43.947 0-87.043-17.49-131.809-53.438-3.748-2.988-10.017-6.562-18.747-6.562-16.552 0-30 13.448-30 30 0 16.582-13.418 30-30 30s-30-13.418-30-30v-29.666c0-59.708 43.902-112.164 103.187-119.242 44.134-5.27 80.333 8.614 113.258 41.096 8.731 8.614 27.365 17.812 53.555 17.812s44.824-9.2 53.555-17.812c32.925-32.482 69.123-46.366 113.258-41.096zM464.002 523.513l-38.994-51.971c-23.876-31.819-23.876-76.233 0-108.018l30.426-40.578c15.78 12.721 35.71 20.214 56.556 20.214s40.772-7.492 56.562-20.217l30.42 40.55c23.876 31.816 23.876 76.23 0 108.018l-38.963 52.002c-22.91 30.529-73.155 30.529-96.007 0z" />
<glyph unicode="&#xe91a;" glyph-name="st-c-coat" horiz-adv-x="1112" d="M472.623 868.471l83.266-248.030 83.269 248.030h-166.535zM422.552 848.771l-111.952-44.414v-0.214l-0.003 0.002-193.568-517.431 160.82-70.662 32.751 86.99v-129.22h218.416v357.815l-106.464 317.134zM471.675 341.747h-94.032v53.734h94.032v-53.734zM801.181 804.142l-0.006-0.002v0.19l-111.909 44.563-106.508-317.258v-357.818h218.416v129.22l32.753-86.99 160.821 70.662-193.568 517.433zM734.129 341.744h-94.030v53.731h94.030v-53.731z" />
<glyph unicode="&#xe91b;" glyph-name="st-c-glasses" d="M1013.395 487.363c-0.369 0.352-342.518 171.721-342.518 171.721-2.959 1.48-6.233 2.25-9.544 2.25h-85.333c-11.793 0-21.333-9.542-21.333-21.334v-42.666c0-11.793 9.54-21.333 21.333-21.333s21.333 9.54 21.333 21.333v21.334h58.959l256-128.001h-800.584l256 128.001h58.959v-21.334c0-11.793 9.54-21.333 21.333-21.333s21.333 9.54 21.333 21.333v42.666c0 11.792-9.54 21.334-21.333 21.334h-85.333c-3.314 0-6.584-0.77-9.544-2.25 0 0-342.215-171.396-342.567-171.755-6.2-3.734-10.556-10.226-10.556-17.995v-85.333c0-11.793 9.542-21.333 21.334-21.333h21.334v-21.337c-0.002-11.79 9.54-21.33 21.332-21.33h21.334v-21.333c0-11.793 9.542-21.337 21.334-21.337h21.332v-21.33c0-11.793 9.542-21.337 21.334-21.337h213.333c11.793 0 21.337 9.544 21.337 21.337v21.333h21.333c11.79 0 21.333 9.54 21.333 21.333v21.333h21.33c11.793 0 21.333 9.54 21.333 21.333v106.667h85.333v-106.667c0-11.793 9.544-21.333 21.337-21.333h21.333v-21.333c0-11.793 9.54-21.337 21.333-21.337h21.33v-21.33c0-11.793 9.544-21.337 21.333-21.337h213.333c11.793 0 21.337 9.544 21.337 21.337v21.333h21.333c11.79 0 21.333 9.54 21.333 21.333v21.333h21.33c11.793 0 21.333 9.54 21.333 21.333v21.333h21.333c11.793 0 21.337 9.544 21.337 21.333v85.337c-0.003 7.789-4.383 14.302-10.609 18.026zM256 298.667h-42.666v42.663h-42.668v42.67h-42.666v42.667h42.666v-42.667h42.666v-42.667h42.668v-42.667zM768 298.667h-42.667v42.663h-42.667v42.67h-42.667v42.667h42.667v-42.667h42.667v-42.667h42.667v-42.667z" />
<glyph unicode="&#xe91c;" glyph-name="st-c-glove" d="M411.713 170.844c4.56-4.564 11.892-4.564 16.37 0l27.122 27.119c1.14 1.14 2.444 1.956 3.826 2.526 1.143 0.492 2.444 1.14 2.935 1.14l155.641-6.84c29.891 0 47.077 13.193 55.873 21.907l39.909 39.909c4.56 4.564 4.56 11.892 0 16.37l-5.864 5.864c-2.362 2.362-3.584 5.54-3.584 8.636 0 4.888 2.85 9.69 8.632 11.81 4.154 1.464 8.796 0.324 11.892-2.768l6.188-6.192c4.56-4.56 11.892-4.56 16.37 0l44.308 44.305c32.741 32.662-13.93 85.681-49.763 49.766 0 0-57.501-57.501-58.317-58.317-10.182-10.182-21.989-11.974-31.601-2.362-10.342 10.342-8.472 22.074 1.464 32.010l244.582 244.579c36.977 36.978-15.8 93.827-54.811 54.814l-168.349-168.349c-4.56-4.56-11.158-5.376-15.718-0.816-4.56 4.564-3.748 11.158 0.812 15.722l203.046 203.044c35.673 35.673-16.94 92.685-54.811 54.813l-203.046-203.046c-4.56-4.56-11.158-5.376-15.718-0.812-4.564 4.56-3.748 11.158 0.812 15.718l178.043 178.285c36.325 36.325-20.934 88.694-54.815 54.813l-178.121-178.122c-4.564-4.561-11.158-5.375-15.722-0.814-4.56 4.561-3.744 11.158 0.816 15.719 0 0 115.408 115.409 115.49 115.49 33.799 33.8-16.207 83.4-49.845 49.845l-322.444-322.443c-15.312-15.312-29.402-35.594-29.972-55.709-0.082-3.014-1.222-5.864-3.421-7.984l-25.737-25.737c-4.562-4.56-4.562-11.892 0-16.37l207.524-207.524zM784.411 523.421l-20.364 20.364c-2.362 2.362-3.584 5.536-3.584 8.632s1.222 6.27 3.584 8.632c4.806 4.806 12.544 4.806 17.268 0l20.688-20.685c3.174-3.178 4.314-8.062 2.686-12.298-3.584-9.124-14.254-10.67-20.279-4.646zM743.605 620.261l-20.361 20.362c-2.362 2.362-3.584 5.538-3.584 8.633s1.222 6.271 3.584 8.633c4.806 4.805 12.541 4.805 17.265 0l20.688-20.688c3.178-3.176 4.318-8.063 2.69-12.298-3.584-9.121-14.254-10.671-20.282-4.642zM659.555 677.599l-20.364 20.362c-2.362 2.362-3.584 5.538-3.584 8.633s1.222 6.271 3.584 8.633c4.806 4.805 12.544 4.805 17.268 0l20.685-20.687c3.178-3.176 4.318-8.063 2.69-12.299-3.584-9.122-14.254-10.669-20.279-4.642zM553.185 704.965l-20.361 20.361c-2.362 2.362-3.584 5.538-3.584 8.633s1.222 6.271 3.584 8.633c4.803 4.805 12.541 4.805 17.265 0l20.688-20.687c3.174-3.176 4.314-8.063 2.686-12.298-3.584-9.122-14.251-10.669-20.279-4.642zM274.315 410.781l2.85 31.846c0.652 7.574 3.991 14.742 9.448 20.118l82.262 82.261c11.319 11.319 29.075 12.786 42.025 3.502l184.231-131.779c9.772-7.008 14.985-18.814 13.52-30.706l-15.964-128.604c-0.082-0.324-0.082-0.649-0.164-0.894-3.178-16.046-17.592-27.368-33.963-26.716l-111.172 4.482c-8.308 0.324-16.128 3.748-22.074 9.612l-141.552 140.817c-6.842 6.84-10.344 16.37-9.448 26.061zM568.091 272.906l10.26 83.48c1.386 11.158-8.796 20.361-19.791 17.838-64.017-14.66-186.429 32.331-234.564 52.531-10.098 4.233-21.339-2.444-22.479-13.278l-0.407-4.072c-0.652-5.864 1.466-11.725 5.619-15.882l129.989-129.987c3.581-3.584 8.387-5.618 13.438-5.7l98.222-2.116c9.936-0.164 18.49 7.25 19.712 17.186zM390.209 132.639c7.984 7.98 7.984 20.852 0 28.832l-198.076 198.076c-7.982 7.98-20.851 7.98-28.832 0-3.991-3.99-5.945-9.202-5.945-14.415s1.954-10.428 5.945-14.418l198.076-198.076c7.984-7.98 20.934-7.98 28.832 0zM346.713 119.521l-198.157 198.076c-7.982 7.98-20.851 7.98-28.832 0-3.991-3.99-5.946-9.206-5.946-14.415 0-5.212 1.954-10.428 5.946-14.418l198.077-198.076c7.982-7.98 20.85-7.98 28.83 0 7.984 7.98 7.984 20.849 0.082 28.832z" />
<glyph unicode="&#xe91d;" glyph-name="st-c-hat" d="M854.975 362.124c-8.076 37.769-19.852 86.258-35.601 135.188-19.835 61.628-41.991 111.237-65.857 147.448-34.966 53.056-75.322 79.956-119.955 79.956-54.344 0-75.332-22.594-92.17-45.736-2.775-3.818-5.4-7.424-8.148-10.472l-0.352-0.388c-4.734-5.176-11.991-8.146-19.903-8.146-7.916 0.002-15.165 2.97-19.927 8.174l-0.297 0.326c-2.778 3.080-5.4 6.686-8.178 10.502-16.838 23.142-37.827 45.736-92.17 45.736-44.629 0-84.988-26.902-119.954-79.956-23.864-36.211-46.022-85.82-65.858-147.451-15.658-48.65-27.39-96.877-35.464-134.55l683.833-0.631zM911.343 171.278l-798.801 0.686c-52.078 0.044-96.17 33.782-111.218 80.346-5.632 17.432 7.34 35.273 25.842 35.256l969.708-0.833c18.497-0.014 31.437-17.869 25.784-35.29-15.104-46.541-59.242-80.21-111.316-80.166z" />
<glyph unicode="&#xe91e;" glyph-name="st-c-necklace" d="M512.007 823.32c37.741 0 68.338 30.597 68.338 68.34s-30.597 68.34-68.338 68.34c-37.745 0-68.342-30.597-68.342-68.34s30.597-68.34 68.342-68.34zM786.586 709.587c37.745 0 68.342 30.597 68.342 68.34s-30.597 68.34-68.342 68.34c-37.741 0-68.338-30.597-68.338-68.34s30.597-68.34 68.338-68.34zM900.308 435.002c37.741 0 68.338 30.597 68.338 68.342 0 37.741-30.597 68.338-68.338 68.338-37.745 0-68.342-30.597-68.342-68.338 0-37.745 30.597-68.342 68.342-68.342zM786.586 160.427c37.745 0 68.342 30.597 68.342 68.342s-30.597 68.338-68.342 68.338c-37.741 0-68.338-30.594-68.338-68.338s30.597-68.342 68.338-68.342zM237.427 160.427c37.743 0 68.34 30.597 68.34 68.342s-30.597 68.338-68.34 68.338c-37.743 0-68.34-30.594-68.34-68.338s30.597-68.342 68.34-68.342zM123.698 435.002c37.743 0 68.34 30.597 68.34 68.342 0 37.741-30.597 68.338-68.34 68.338s-68.34-30.597-68.34-68.338c0-37.745 30.597-68.342 68.34-68.342zM237.427 709.587c37.743 0 68.34 30.597 68.34 68.34s-30.597 68.34-68.34 68.34c-37.743 0-68.34-30.597-68.34-68.34s30.597-68.34 68.34-68.34zM660.644 793.737c37.745 0 68.342 30.597 68.342 68.34s-30.597 68.34-68.342 68.34c-37.741 0-68.338-30.597-68.338-68.34s30.597-68.34 68.338-68.34zM870.769 583.554c37.745 0 68.342 30.597 68.342 68.339s-30.597 68.34-68.342 68.34c-37.741 0-68.338-30.597-68.338-68.34s30.597-68.339 68.338-68.339zM870.748 286.362c37.745 0 68.342 30.597 68.342 68.342 0 37.741-30.597 68.338-68.342 68.338s-68.338-30.597-68.338-68.338c0-37.745 30.594-68.342 68.338-68.342zM723.712 170.725c-14.442 34.874-54.422 51.442-89.296 37.001-19.842-8.216-33.744-24.699-39.393-43.803 31.662-19.988 55.661-51.033 66.536-87.685 8.397 0.119 16.916 1.782 25.153 5.192 34.877 14.442 51.439 54.419 37.001 89.296zM389.53 207.718c-34.874 14.449-74.858-2.106-89.306-36.98-14.45-34.874 2.106-74.858 36.98-89.306 8.266-3.424 16.817-5.086 25.251-5.195 10.861 36.625 34.836 67.652 66.464 87.641-5.642 19.118-19.541 35.615-39.39 43.841zM153.248 286.437c37.743 0 68.34 30.597 68.34 68.338 0 37.745-30.597 68.342-68.34 68.342s-68.34-30.597-68.34-68.342c0-37.741 30.597-68.338 68.34-68.338zM153.269 583.636c37.743 0 68.34 30.597 68.34 68.341s-30.597 68.34-68.34 68.34c-37.743 0-68.34-30.597-68.34-68.34s30.597-68.341 68.34-68.341zM363.445 793.77c37.741 0 68.338 30.597 68.338 68.34s-30.597 68.34-68.338 68.34c-37.744 0-68.341-30.597-68.341-68.34s30.597-68.34 68.341-68.34zM512.003 127.891c-52.903 0-95.942-43.039-95.942-95.942s43.039-95.942 95.942-95.942c52.907 0 95.945 43.039 95.945 95.942-0.003 52.903-43.039 95.942-95.945 95.942z" />
<glyph unicode="&#xe91f;" glyph-name="st-c-pants" d="M750.049 779.117l0.147 18.471c0.137 17.291-0.577 34.559-2.075 51.754h-61.484c8.434-32.421 32.386-58.636 63.413-70.225zM741.113 900.907c-1.673 9.069-3.523 18.106-5.656 27.089l-2.99 12.582c-2.703 11.386-12.872 19.423-24.576 19.423h-391.778c-11.702 0-21.871-8.037-24.573-19.419l-2.99-12.596c-2.135-8.979-3.984-18.013-5.659-27.078h458.222zM633.989 849.342h-96.201v-93.102c0-14.242-11.54-25.782-25.781-25.782-14.244 0-25.784 11.54-25.784 25.782v93.102h-96.273c-10.288-60.771-56.276-109.531-115.583-123.89l6.043-764.394c0.11-13.872 11.386-25.057 25.257-25.057h134.5c13.387 0 24.453 10.452 25.214 23.818l39.984 700.744c0.198 3.503 3.096 6.239 6.601 6.239 3.509 0 6.407-2.736 6.605-6.239l39.984-700.744c0.765-13.367 11.827-23.818 25.218-23.818h134.496c13.872 0 25.146 11.185 25.259 25.057l6.1 764.384c-59.331 14.342-105.342 63.108-115.637 123.9zM337.296 849.342h-61.421c-1.502-17.192-2.217-34.456-2.080-51.74l0.148-18.457c30.998 11.599 54.923 37.801 63.352 70.197z" />
<glyph unicode="&#xe920;" glyph-name="st-c-shirt" d="M384 927.983c0-70.591 57.405-127.997 127.997-127.997 70.526 0 127.997 57.407 127.997 127.997h-255.993zM1007.862 795.762l-223.997 127.997c-4.799 2.752-10.301 4.224-15.872 4.224h-63.997c0-105.854-86.142-191.996-191.997-191.996s-191.996 86.142-191.996 191.996h-63.999c-5.568 0-11.008-1.472-15.872-4.224l-223.995-127.997c-12.8-7.296-18.944-22.399-14.912-36.543l63.999-223.995c4.736-16.64 22.015-26.433 38.527-22.272l88.254 22.016v-534.965c0-17.664 14.336-32 31.999-32h575.987c17.664 0 32 14.336 32 32v534.965l88.255-22.016c16.51-4.222 33.727 5.632 38.526 22.272l64 223.995c4.031 14.144-2.113 29.247-14.913 36.543z" />
<glyph unicode="&#xe921;" glyph-name="st-c-shoe" d="M38.856 218.866c0-14.828 12.674-26.863 28.331-26.863h300.64c4.137 0 8.066 0.843 11.616 2.365-100.143 21.115-222.557 42.875-340.587 53.422v-28.925zM38.855 301.769c33.090-2.867 66.498-6.608 99.682-10.964l12.149 62.969c7.884 40.868-25.249 78.469-68.993 78.469h-52.796c-1.487-34.045 0.536-71.526 8.574-111.012 0.321-1.577 0.795-3.092 1.386-4.553l-0.002-14.909zM995.424 248.32l-5.502 53.849c-5.857 57.347-52.46 106.035-113.326 118.402-4.454 0.901-10.988 2.321-19.357 4.376l-92.897-85.282c-47.391-43.506-118.897-53.958-177.923-26.003l-182.296 86.333c-25.276 11.967-55.808-0.201-64.525-25.528l-37.789-109.763c32.995-6.134 64.672-12.493 94.355-18.777 126.744-26.853 217.207-52.343 218.798-52.794 2.635-0.748 5.376-1.13 8.131-1.13 256.72 0 348.938 26.982 352.741 28.133 12.718 3.847 20.879 15.589 19.593 28.184zM206.426 344.108l-11.817-61.249c17.183-2.611 34.217-5.352 51.023-8.189l40.097 116.47c19.482 56.583 87.547 83.517 143.71 56.924l182.296-86.333c37.557-17.787 83.046-11.141 113.193 16.534l70.516 64.737c-21.176 7.083-45.517 16.104-72.189 27.426-1.382-3.256-3.465-6.311-6.253-8.95l-49.309-46.705c-11.073-10.486-29.007-10.472-40.066 0.024s-11.049 27.505 0.024 37.99l43.684 41.376c-16.473 8.073-33.543 16.978-51.067 26.761-2.103-2.864 1.529 0.819-54.678-52.419-11.076-10.489-29.010-10.476-40.069 0.020-11.056 10.496-11.049 27.505 0.024 37.99l45.821 43.401c-15.435 9.704-31.106 20.074-46.94 31.194-2.55-4.007 0.727-0.468-60.942-58.877-11.073-10.493-29.013-10.472-40.066 0.017-11.059 10.499-11.049 27.508 0.024 37.994l56.678 53.681c-21.367 16.659-42.871 34.655-64.317 54.158-12.261 11.149-32.065 9.623-42.267-3.26-0.584-0.736-47.669-58.084-163.651-58.080-30.734 0-66.313 4.028-107.134 14.204-13.145 3.276-26.902-2.762-32.765-14.395-1.59-3.154-24.657-49.841-35.713-120.579h47.42c79.218 0 138.962-68.103 124.733-141.868zM520.226 613.949c-10.964 10.408-28.89 10.618-40.107-0.020 14.858-11.585 29.645-22.521 44.305-32.816 6.574 10.325 5.195 23.921-4.198 32.836zM617.062 555.233c-11.059 10.496-28.996 10.506-40.066 0.020l-5.632-5.335c16.616-10.441 32.945-20.084 48.903-28.993 7.69 10.469 6.636 24.962-3.205 34.307zM717.022 499.463c-11.059 10.499-28.996 10.51-40.069 0.024l-5.618-5.321c18.091-8.868 35.447-16.742 51.92-23.736 4.116 9.687 2.041 21.183-6.233 29.034z" />
<glyph unicode="&#xe922;" glyph-name="st-c-watch" d="M299.583 120.791l13-157.266c1.281-15.561 14.289-27.532 29.897-27.532h289.611c15.609 0 28.611 11.971 29.897 27.532l13.001 157.266c-55.313-31.85-119.422-50.084-187.703-50.084-68.284 0-132.393 18.234-187.704 50.084zM822.286 478.003h-19.132c-15.165 160.937-151.026 287.288-315.86 287.288-174.954 0-317.29-142.336-317.29-317.288 0-174.954 142.336-317.29 317.29-317.29 164.833 0 300.694 126.351 315.86 287.29h19.132c16.572 0 30 13.428 30 30 0 16.568-13.428 30-30 30zM603.092 606.222l16.234 16.234c11.711 11.719 30.703 11.719 42.421 0.008 11.718-11.719 11.718-30.711 0.007-42.429l-16.234-16.234c-5.857-5.861-13.537-8.789-21.21-8.789-7.68 0-15.36 2.929-21.217 8.789-11.711 11.711-11.721 30.71 0 42.421zM457.295 664.721c0 16.57 13.428 30 30 30 16.568 0 30-13.429 30-30v-22.961c0-16.563-13.431-29.999-30-29.999-16.572 0-30 13.437-30 29.999v22.961zM270.575 418.004c-16.57 0-30 13.428-30 30 0 16.568 13.43 30 30 30h22.961c16.563 0 30-13.431 30-30 0-16.572-13.438-30-30-30h-22.961zM371.497 289.785l-16.234-16.237c-5.861-5.857-13.534-8.786-21.212-8.786-7.68 0-15.359 2.929-21.211 8.786-11.719 11.711-11.719 30.706 0 42.424l16.234 16.234c11.711 11.718 30.705 11.718 42.423 0 11.711-11.718 11.711-30.71 0-42.421zM371.497 563.801c-5.861-5.861-13.541-8.789-21.21-8.789-7.68 0-15.36 2.929-21.212 8.789l-16.234 16.234c-11.719 11.711-11.719 30.71 0 42.421 11.711 11.719 30.712 11.719 42.423 0l16.234-16.234c11.711-11.711 11.711-30.703 0-42.421zM517.294 231.284c0-16.572-13.431-30-30-30-16.565 0-30 13.428-30 30v22.961c0 16.561 13.435 30 30 30 16.568 0 30-13.438 30-30v-22.961zM569.815 383.809c-3.826 0-7.711 0.734-11.469 2.294l-82.531 34.181c-11.209 4.649-18.521 15.585-18.521 27.72v69.335c0 16.561 13.435 30 30 30 16.568 0 30-13.438 30-30v-49.289l64.014-26.515c15.305-6.345 22.579-23.893 16.234-39.206-4.789-11.547-15.961-18.521-27.727-18.521zM661.746 273.541c-5.85-5.85-13.53-8.779-21.21-8.779-7.673 0-15.353 2.929-21.21 8.786l-16.234 16.237c-11.711 11.711-11.711 30.71 0.007 42.421 11.718 11.718 30.703 11.718 42.421 0l16.234-16.234c11.711-11.718 11.711-30.713-0.007-42.431zM704.014 418.004h-22.955c-16.572 0-30 13.428-30 30 0 16.568 13.428 30 30 30h22.955c16.568 0 30-13.431 30-30 0-16.572-13.431-30-30-30zM674.99 775.203l-13.001 157.266c-1.287 15.563-14.288 27.531-29.897 27.531h-289.611c-15.608 0-28.616-11.969-29.897-27.531l-13-157.266c55.311 31.852 119.42 50.086 187.704 50.086 68.28 0 132.39-18.234 187.703-50.086z" />
<glyph unicode="&#xe923;" glyph-name="st-c-ears" d="M692.013 820c16.568 0 30 13.432 30 30 0 27.57 22.429 50 49.998 50s50.001-22.43 50.001-50c0-27.57-22.432-50-50.001-50-16.568 0-30-13.432-30-30v-95.16c-34.918-12.384-60-45.731-60-84.841 0-49.625 40.376-89.998 90.001-89.998 49.628 0 90.001 40.373 90.001 89.998 0 39.111-25.082 72.457-60 84.841v69.318c46.122 13.090 80.002 55.584 80.002 105.842 0 60.654-49.348 110-110.002 110s-109.999-49.346-109.999-110c0-16.568 13.432-30 30-30zM780.619 117.265l-0.021 0.012c-2.759-0.828-5.644-1.286-8.587-1.286-2.852 0-5.755 0.41-8.632 1.274l-208.646 62.594 194.22-233.065c5.701-6.837 14.146-10.794 23.046-10.794 8.903 0 17.348 3.957 23.046 10.794l194.223 233.065-208.649-62.594zM742.005 443.016c-17.050 3.476-33.051 9.851-47.474 18.589l-135.96-220.256 183.435-55.028v256.696zM802.012 443.016v-256.696l183.435 55.028-135.96 220.256c-14.423-8.737-30.425-15.113-47.474-18.589zM172.011 820c16.568 0 30 13.432 30 30 0 27.57 22.43 50 50 50s49.999-22.43 49.999-50c0-27.57-22.429-50-49.999-50-16.568 0-30-13.432-30-30v-95.16c-34.918-12.384-60-45.731-60-84.841 0-49.625 40.374-89.998 90-89.998s90.001 40.373 90.001 89.998c0 39.111-25.082 72.457-60.001 84.841v69.318c46.123 13.090 79.999 55.584 79.999 105.842 0 60.654-49.345 110-109.999 110s-110-49.346-110-110c0-16.568 13.432-30 30-30zM260.62 117.265l-0.022 0.012c-2.758-0.828-5.644-1.286-8.586-1.286-2.854 0-5.756 0.41-8.632 1.274l-208.648 62.594 194.222-233.065c5.7-6.837 14.144-10.794 23.046-10.794s17.346 3.957 23.046 10.794l194.222 233.065-208.648-62.594zM222.004 443.016c-17.048 3.476-33.052 9.851-47.474 18.589l-135.96-220.256 183.434-55.028v256.696zM282.011 443.016v-256.696l183.435 55.028-135.96 220.256c-14.423-8.737-30.427-15.113-47.475-18.589z" />
</font>
</defs>
</svg>
